musicatelier
» » Steve Eaton - Steve Eaton

Steve Eaton - Steve Eaton Album

Tracklist

1Million Dollar Blues 3:33
2Long Overdue3:21
3No Man's Land 4:08
4Took Me By Surprise 3:10
5Rakin' Leaves in the Wind3:15
6Never Knew A Pain3:22
7You're Not A Hero4:05
8Friendly Stealer3:37
9Got Me Moanin'2:35
10All In Love Say "I"4:15
11 Bonus Tracks
12Hurricanes And Tornadoes4:09
13Without You3:43
14Old, Smart, Big, And Kind2:59
15Where Do I Fit In2:35

Versions

CategoryArtistTitle (Format)LabelCategoryCountryYear
SE 46753Steve Eaton Steve Eaton ‎(LP)Mountain Bluebird RecordsSE 46753US1979

Credits

  • Backing VocalsCindy Fee, Sandy Martinez
  • BassLeland Sklar, Matt Marshall, Phil Marshall
  • DrumsJim Gordon, John Ferraro, Mike Baird
  • Electric GuitarSteve Lukather
  • Electric Guitar, Acoustic Guitar, Synthesizer, Piano, Harmonica, VocalsSteve Eaton
  • Electric Piano [Fender Rhodes]Jai Winding
  • Electric Piano [Fender Rhodes], Piano, SynthesizerJim Cox
  • PercussionSteve Forman
  • PianoMichael Omartian
  • Piano, Organ [Hammond B3]Larry Knechtel
  • SaxophoneCraig Bhuler

Notes

Original released 1979 on Mountain Bluebird Records

Barcodes

  • Barcode: 4540399000725
  • Rights Society: ASCAP

Companies

  • Copyright (c) – Even Steven Publishing
  • Copyright (c) – BMG Music Publishers Ltd.
  • Produced For – Mountain Bluebird Records
  • Distributed By – Vivid Sound Corporation
  • Manufactured By – Tokuma Japan Communications

Album

Steve Eaton. Home for Christmas - Steve Eaton. Лента с персональными рекомендациями и музыкальными новинками, радио, подборки на любой вкус, удобное управление своей коллекцией. For years, Steve Eaton has been identified as a unique and innovative songwriter and musician. An Idaho native, Steve has written songs for The Carpenters, Art Garfunkel and Lee Greenwood to name a few. Some of these songs have climbed Billboard Magazine's top 20, appeared on albums achi read more. Steve Eaton: English footballer, who played as a full back in the Football League for Tranmere Rovers during the 1978-79 season. Eaton also played for Telford United. Where Do I Fit In, Fool For The Moon, You Can Get Your Love Right Here и другие песни. English footballer, who played as a full back in the Football League for Tranmere Rovers during the 1978-79 season. Последние твиты от Steve Eaton SteveEaton 82. Drummer for Sydney based Progressive Rock band Anubis. Sydney, Australia. Back in the studio, tracking drums for Anubis album four. Label: Vivid Sound VSCD-072 Series: City Breeze Collection 038 Format: CD, Album, Reissue, Remastered, Stereo Country: Japan Released: 2000 Tracklist Steve Eaton for music events public and private, large and small. Call 208 761-3140 for more details. Steve Eaton Music is a venture in entertainment catering. Master jazzcountryfolk musician Steve. 527 people like this. 508 people follow this. Steve Eaton born 25 December 1959 is an English footballer, who played as a full back in the Football League for Tranmere Rovers during the 197879 season. Filter Discography By. Albums All. Tacoma, United States of America. Steve Eaton has disabled new messages. Go to conversation. What is this message about

Video

Steve Eaton - Steve Eaton Album
Performer:
Steve Eaton
Title:
Steve Eaton
Genre:
FLAC size:
2258 mb
MP3 size:
2765 mb
WMA size:
1998 mb
Country:
Japan
Released:
2000
Label:
Vivid Sound
Style:
Soft Rock
Rating:
4.8
Catalog №:
VSCD-072
Marad
foobar2000 1.3.17 / Dynamic Range Meter 1.1.1
log date: 2018-05-12 13:52:31

--------------------------------------------------------------------------------
Analyzed: Steve Eaton / Steve Eaton [JP 2000 CD]
--------------------------------------------------------------------------------

DR Peak RMS Duration Track
--------------------------------------------------------------------------------
DR12 0.00 dB -14.33 dB 2:35 01-Got Me Moanin'
DR12 0.00 dB -14.58 dB 3:15 02-Rakin' Leaves In The Wind
DR11 0.00 dB -13.97 dB 4:15 03-All In Love Say "I"
DR13 0.00 dB -16.23 dB 4:09 04-Hurricanes And Tornadoes
DR13 0.00 dB -16.05 dB 2:35 05-Where Do I Fit In
DR13 -0.02 dB -15.46 dB 2:59 06-Old, Smart, Big And Kind
DR12 0.00 dB -14.35 dB 3:43 07-Without You
DR12 0.00 dB -14.45 dB 3:22 08-Never Knew A Pain
DR12 0.00 dB -14.06 dB 3:37 09-Friendly Stealer
DR12 0.00 dB -15.74 dB 4:05 10-You're Not A Hero
DR11 0.00 dB -13.49 dB 3:21 11-Long Overdue
DR12 0.00 dB -13.56 dB 3:33 12-Million Dollar Blues
DR11 0.00 dB -14.11 dB 4:08 13-No Man's Land
DR10 0.00 dB -12.21 dB 3:10 14-Took Me By Surprise
--------------------------------------------------------------------------------

Number of tracks: 14
Official DR value: DR12

Samplerate: 44100 Hz
Channels: 2
Bits per sample: 16
Bitrate: 709 kbps
Codec: ALAC
================================================================================

© 2018-2021 Copyrights
All rights reserved. musicatelier.it | Privacy Policy | DMCA | Contacts