musicatelier
» » Alan Gordon - Alley & The Soul Sneekers

Alan Gordon - Alley & The Soul Sneekers Album

Tracklist

1Cheater's Honeymoon3:19
2How Can You Leave Her2:18
3Understand Yor Man3:15
4Caught In Another Way With Love2:48
5Running Away Like A Child2:33
6Libertina2:47
7Soul Sneekers2:27
8I'm Comin' Down With A Thrill3:00
9 Bonus Track
10Let The Music Begin3:26
11Love Breakdown3:45
12Over The Airwaves3:04

Versions

CategoryArtistTitle (Format)LabelCategoryCountryYear
SW-11845Alan Gordon Alley & The Soul Sneekers ‎(LP, Album)Capitol RecordsSW-11845Canada1978
SW-11913Alley & The Soul Sneekers Alley & The Soul Sneekers ‎(LP, Album)Capitol RecordsSW-11913US1979

Barcodes

  • Matrix / Runout: VSCD-0556 A1
  • Mastering SID Code: IFPI L152
  • Mould SID Code: IFPI 2809

Companies

  • Manufactured By – Toshiba EMI Ltd
  • Distributed By – Vivid Sound Corporation

Album

Play album. Track playing: Loading. Please wait. Wrong audioTry another Alley & The Soul Sneekers. Alan Gordon. 10 tracks. Released in 1978. Funk, Soul. Love Breakdown. Im Comin Down With A Thrill. Alley & the Soul Sneakers. Your Rating. Vivid Sound 556. Alley & The Soul Sneekers by Alan Gordon. Release date. Новинка 3:03. Новинка 2:49. Новинка 3:17. Новинка 2:35. All information of this Soul or Funk Album Like fragments, covers, tracks. Album Info This Release. Visitor rating. Release date label labelcode medium genre submit & The Soul Sneekers from Alan Gordon 1978 Vinyl. And other albums from Alan Gordon are available on sale at Recordsale. Покупка Alan Gordon - Alley & The Soul Sneekers - Vivid Sound - CD, Album, RE - VSCD-556 , включает Love Breakdown, I'm Comin' Down With A Thrill, Cheater's Honeymoon, Caught In Another Way With Love, Soul Sneekers, Understand Yor Man, Over The Airwaves, Running Away Like A Child, Libertina, Let The Music Begin, How Can You Leave Her. Vinyl - LP - used - NMNM - CAPITOL - 11845 - inner sleeve, cut out, small EMI library tag on Soul Album is the fourth studio album by American soul singer-songwriter Otis Redding, released in 1966. Otis Redding vocals. Booker T. Jones, Isaac Hayes keyboards, piano. Steve Cropper guitar. Donald Dunn bass guitar. Al Jackson Jr. Wayne Jackson, Sammy Coleman, Gene Bowlegs Miller trumpet. Charles Packy Axton, Andrew Love tenor saxophone. Floyd Newman baritone saxophone. Listen to online Alan Gordon - Alley & The Soul Sneekers, or download mp3 tracks: download here mp3 release album free and without registration. On this page you can not listen to mp3 music free or download album or mp3 track to your PC, phone or tablet. Buy Alan Gordon - Alley & The Soul Sneekers from authorized sellers. Released at: This album was released on the label Capitol Records catalog number SW-11845. This album was released in 1978 year. Format of the release is. Vinyl , LP

Video

Alan Gordon - Alley & The Soul Sneekers Album
Performer:
Alan Gordon
Title:
Alley & The Soul Sneekers
Genre:
FLAC size:
1585 mb
MP3 size:
2438 mb
WMA size:
1205 mb
Country:
Japan
Released:
21 Apr 1996
Label:
Vivid Sound
Style:
Soul
Rating:
4.8
Catalog №:
VSCD-556
Lynnak
foobar2000 1.4.4 / Dynamic Range Meter 1.1.1
log date: 2019-08-29 20:01:35

--------------------------------------------------------------------------------
Analyzed: Alan Gordon / Alley & The Soul Sneekers [JP 1978/1996 CD]
--------------------------------------------------------------------------------

DR Peak RMS Duration Track
--------------------------------------------------------------------------------
DR13 -1.01 dB -17.65 dB 3:45 01-Love Breakdown
DR14 -1.37 dB -18.17 dB 3:00 02-I'm Comin' Down With A Thrill
DR13 -1.15 dB -17.46 dB 3:19 03-Cheater's Honeymoon
DR13 -1.30 dB -16.73 dB 2:48 04-Caught In Another Way With Love
DR14 -0.72 dB -16.77 dB 2:27 05-Soul Sneekers
DR13 -1.01 dB -16.84 dB 3:15 06-Understand Your Man
DR12 -2.09 dB -18.06 dB 3:04 07-Over The Airwaves
DR13 -0.78 dB -17.43 dB 2:33 08-Running Away Like A Child
DR15 -0.04 dB -18.12 dB 2:47 09-Libertina
DR13 -1.41 dB -18.30 dB 3:26 10-Let The Music Begin
DR13 -2.07 dB -18.21 dB 2:18 11-How Can You Leave Her
--------------------------------------------------------------------------------

Number of tracks: 11
Official DR value: DR13

Samplerate: 44100 Hz
Channels: 2
Bits per sample: 16
Bitrate: 893 kbps
Codec: ALAC
================================================================================
© 2018-2021 Copyrights
All rights reserved. musicatelier.it | Privacy Policy | DMCA | Contacts